Podziękowania Podziękowania:  0
Pokaż wyniki od 1 do 2 z 2
  1. #1
    Elite Member
    Awatar RobertoW
    Dołączył
    Jan 2019
    Postów
    641
    Siła reputacji
    5

    EN Gags The Clown (2018)





    Gags The Clown (2018) 1080p WEB-DL H264 AC3-EVO


    Language: English
    3.41 GiB * 1 h 29 min * 1920x1080p * 23.976 Fps * AVC * 5 055 kb/s * ENG * 384 kb/s * 6Ch * 48.0 kHz
    Genre(s): Comedy, Horror




    Spoiler:
    ╚»★«╝ Original title: Gags The Clown ╚»★«╝
    ╚»★«╝ Year: [2018] ╚»★«╝
    ★彡 Actors: Lauren Ashley Carter, Tracy Perez, Aaron Christensen, Evan Gamble 彡★
    iMDB Ratings: 7.0/10 | Votes: 38 | iMDB Rate: N/A | RunTime: 89 min
    Genres: Comedy, Horror


    PLOT:

    Treść widoczna tylko dla Użytkowników forum Darkarea.pl Zaloguj się lub Zarejestruj
    aby korzystać ze wszystkich darmowych funkcji forum






    Spoiler:

    ▁ ▂ ▄ ▅ ▆ ▇ █ [SCREENs] █ ▇ ▆ ▅ ▄ ▂ ▁






    Treść widoczna tylko dla Użytkowników forum Darkarea.pl Zaloguj się lub Zarejestruj
    aby korzystać ze wszystkich darmowych funkcji forum



    Treść widoczna tylko dla Użytkowników forum Darkarea.pl Zaloguj się lub Zarejestruj
    aby korzystać ze wszystkich darmowych funkcji forum



  2. # ADS
    Ważna Osobistość
    Dołączył
    Sierpień 2012
    Postów
    70 935
     

  3. #2
    Uplinker
    Awatar Motylek
    Dołączył
    Dec 2011
    Postów
    12 305
    Siła reputacji
    164

    Domyślnie

    Gags The Clown (2018) 1080p.WEB-DL.DD5.1.H264-FGT

    3.41 gb


    Informacje o pliku video:

    Spoiler:
    Video
    ID : 1
    Format : AVC
    Format/Info : Advanced Video Codec
    Format profile : [email protected]
    Format settings : CABAC / 4 Ref Frames
    Format settings, CABAC : Yes
    Format settings, Reference frames : 4 frames
    Codec ID : V_MPEG4/ISO/AVC
    Duration : 1 h 29 min
    Bit rate : 5 055 kb/s
    Width : 1 920 pixels
    Height : 1 080 pixels
    Display aspect ratio : 16:9
    Frame rate mode : Constant
    Frame rate : 23.976 (24000/1001) FPS
    Color space : YUV
    Chroma subsampling : 4:2:0
    Bit depth : 8 bits
    Scan type : Progressive
    Bits/(Pixel*Frame) : 0.102
    Stream size : 3.17 GiB (93%)
    Title : Gags.The.Clown.2018.1080p.WEB-DL.DD5.1.H264-FGT
    Language : English
    Default : Yes
    Forced : No
    Color range : Limited
    Color primaries : BT.709
    Transfer characteristics : BT.709
    Matrix coefficients : BT.709

    Audio
    ID : 2
    Format : AC-3
    Format/Info : Audio Coding 3
    Commercial name : Dolby Digital
    Codec ID : A_AC3
    Duration : 1 h 29 min
    Bit rate mode : Constant
    Bit rate : 384 kb/s
    Channel(s) : 6 channels
    Channel layout : L R C LFE Ls Rs
    Sampling rate : 48.0 kHz
    Frame rate : 31.250 FPS (1536 SPF)
    Bit depth : 16 bits
    Compression mode : Lossy
    Stream size : 246 MiB (7%)
    Title : Gags.The.Clown.2018.1080p.WEB-DL.DD5.1.H264-FGT
    Language : English
    Service kind : Complete Main
    Default : Yes
    Forced : No

    Text
    ID : 3
    Format : UTF-8
    Codec ID : S_TEXT/UTF8
    Codec ID/Info : UTF-8 Plain Text
    Duration : 1 h 27 min
    Bit rate : 123 b/s
    Count of elements : 1869
    Stream size : 78.9 KiB (0%)
    Language : English
    Default : Yes
    Forced : No




    Treść widoczna tylko dla Użytkowników forum Darkarea.pl Zaloguj się lub Zarejestruj
    aby korzystać ze wszystkich darmowych funkcji forum



Podobne wątki

  1. [HD] Clown (2019)
    By Motylek in forum Napisy / Bez Napisów
    Odpowiedzi: 0
    Ostatni post / autor: 28-08-19, 11:22
  2. [HD] 8 Ball Clown (2018)
    By RobertoW in forum Napisy / Bez Napisów
    Odpowiedzi: 0
    Ostatni post / autor: 23-04-19, 19:09
  3. Klaun / Clown (2014)
    By Markus in forum Filmy Dubbing PL / Lektor
    Odpowiedzi: 6
    Ostatni post / autor: 15-06-17, 10:07
  4. Clown (2014)
    By Motylek in forum Filmy z napisami lub bez napisów
    Odpowiedzi: 2
    Ostatni post / autor: 02-04-15, 22:46

Uprawnienia umieszczania postów

  • Nie możesz zakładać nowych tematów
  • Nie możesz pisać wiadomości
  • Nie możesz dodawać załączników
  • Nie możesz edytować swoich postów
  •  
Do Góry
O nas

Darkarea jest najlepszym multimedialnym serwisem ogólnotematycznym oraz forum młodzieżowym z nastawieniem na rozrywkę, rozmowy, wymianę doświadczeniami, strefę download, pobieranie, ściąganie i wzajemną pomoc. Tylko u nas znajdziesz wszystko czego szukasz w Internecie, a jeśli jeszcze nie ma tego u nas to nasza ekipa znajdzie to dla Ciebie. Gry, programy, muzykę, filmy, seriale, książki, komiksy, audiobooki, p2m – wszystko na serwerach bez limitów, za darmo, pobierasz i korzystasz. Na forum mamy też działy tematyczne przeznaczone do rozmów na różne tematy i rozwiązywania problemów naszych użytkowników.

Użytkownicy naszego serwisu wymieniają się plikami z hostingów: Rapidshare, Turbobit, rapidgator, Chomikuj, fastshare, kingfile, rapidu, lunaticfiles, fileshark, hotlink, uploaded, depositfiles, ale to nie wszystkie hostingi z których korzystają nasi użytkownicy.

Tematyka forum może przypominać takie serwisy jak: forumowisko, peb, darkw, precyl, exsite24, pobieramy24, zajefajna, uploaduj, ajo, piratebay, p2m.


Na tej stronie nie są umieszczone żadne pliki, a jedynie informacje na ich temat (opis, długość, kodek, typ, rodzaj kompresji, suma kontrolna itp.).

Pamiętaj, że pliki objęte prawem autorskim wolno zgrywać z sieci jedynie, jeżeli posiada się w domu ich oryginalną wersję, a ściągniętą kopię będzie się traktować jako zapasową.

Jeśli jakaś treść na darkarea.pl łamie Państwa prawa autorskie, prosimy o zgłoszenie tego faktu pod adresem: [email protected]