NOTICE Uwaga: to jest stary wątek. Ostatni post był 1175 dni temu. Jeśli Twój post nie jest bezpośrednio związany z tą dyskusją, rozważ utworzenie nowego wątku.
Podziękowania Podziękowania:  0
Pokaż wyniki od 1 do 1 z 1

Wątek: Geostorm (2017)

  1. #1
    Zbanowany

    Dołączył
    Apr 2017
    Postów
    402
    Siła reputacji
    0

    PL Geostorm (2017)

    Geostorm (2017).HDCAM.ENG.X264-UPLOADER1981[NAPISY PL]





    Reżyseria: Dean Devlin
    Scenariusz: Dean Devlin, Paul Guyot
    Gatunek: Katastroficzny
    Produkcja: USA
    Premiera: 20 października 2017 (Polska) 12 października 2017 (świat)
    Boxoffice: $62 900 000


    Sieć satelitów, która została stworzona do kontroli globalnego klimatu, zaczyna powodować katastrofalne anomalie pogodowe.








    Dane techniczne:


    Spoiler:
    Format : MPEG-4
    Format profile : Base Media / Version 2
    Codec ID : mp42 (mp42)
    File size : 803 MiB
    Duration : 1 h 41 min
    Overall bit rate : 1 106 kb/s
    Codirector : codirector
    Production studio : studio
    ContentType : Unknown Type
    Encoded date : UTC 2017-11-06 14:59:46
    Tagged date : UTC 2017-11-06 14:59:46


    Video
    ID : 1
    Format : AVC
    Format/Info : Advanced Video Codec
    Format profile : [email protected]
    Format settings, CABAC : Yes
    Format settings, ReFrames : 2 frames
    Muxing mode : Container [email protected]
    Codec ID : avc1
    Codec ID/Info : Advanced Video Coding
    Duration : 1 h 41 min
    Bit rate : 998 kb/s
    Width : 854 pixels
    Height : 388 pixels
    Display aspect ratio : 2.2:1
    Frame rate mode : Constant
    Frame rate : 25.000 FPS
    Color space : YUV
    Chroma subsampling : 4:2:0
    Bit depth : 8 bits
    Scan type : Progressive
    Bits/(Pixel*Frame) : 0.121
    Stream size : 725 MiB (90%)
    Language : English


    Audio
    ID : 2
    Format : AAC
    Format/Info : Advanced Audio Codec
    Format profile : LC
    Codec ID : 40
    Duration : 1 h 41 min
    Bit rate mode : Constant
    Bit rate : 101 kb/s
    Channel(s) : 2 channels
    Channel positions : Front: L R
    Sampling rate : 44.1 kHz
    Frame rate : 43.066 FPS (1024 spf)
    Compression mode : Lossy
    Stream size : 73.3 MiB (9%)
    Title : Stereo
    Language : English
    Default : Yes
    Alternate group : 1




    Download:


    Treść widoczna tylko dla Użytkowników forum Darkarea.pl Zaloguj się lub Zarejestruj
    aby korzystać ze wszystkich darmowych funkcji forum


  2. # ADS
    Ważna Osobistość
    Dołączył
    Sierpień 2012
    Postów
    70 935
     

Tagi dla tego wątku

Uprawnienia umieszczania postów

  • Nie możesz zakładać nowych tematów
  • Nie możesz pisać wiadomości
  • Nie możesz dodawać załączników
  • Nie możesz edytować swoich postów
  •  
Do Góry
O nas

Darkarea jest najlepszym multimedialnym serwisem ogólnotematycznym oraz forum młodzieżowym z nastawieniem na rozrywkę, rozmowy, wymianę doświadczeniami, strefę download, pobieranie, ściąganie i wzajemną pomoc. Tylko u nas znajdziesz wszystko czego szukasz w Internecie, a jeśli jeszcze nie ma tego u nas to nasza ekipa znajdzie to dla Ciebie. Gry, programy, muzykę, filmy, seriale, książki, komiksy, audiobooki, p2m – wszystko na serwerach bez limitów, za darmo, pobierasz i korzystasz. Na forum mamy też działy tematyczne przeznaczone do rozmów na różne tematy i rozwiązywania problemów naszych użytkowników.

Użytkownicy naszego serwisu wymieniają się plikami z hostingów: Rapidshare, Turbobit, rapidgator, Chomikuj, fastshare, kingfile, rapidu, lunaticfiles, fileshark, hotlink, uploaded, depositfiles, ale to nie wszystkie hostingi z których korzystają nasi użytkownicy.

Tematyka forum może przypominać takie serwisy jak: forumowisko, peb, darkw, precyl, exsite24, pobieramy24, zajefajna, uploaduj, ajo, piratebay, p2m.


Na tej stronie nie są umieszczone żadne pliki, a jedynie informacje na ich temat (opis, długość, kodek, typ, rodzaj kompresji, suma kontrolna itp.).

Pamiętaj, że pliki objęte prawem autorskim wolno zgrywać z sieci jedynie, jeżeli posiada się w domu ich oryginalną wersję, a ściągniętą kopię będzie się traktować jako zapasową.

Jeśli jakaś treść na darkarea.pl łamie Państwa prawa autorskie, prosimy o zgłoszenie tego faktu pod adresem: [email protected]