PDA

Zobacz pełną wersję : Geostorm (2017)



uploader1981
06-11-17, 18:39
Geostorm (2017).HDCAM.ENG.X264-UPLOADER1981[NAPISY PL]


https://s1.postimg.org/190h5tfjfz/image.jpg


Reżyseria: Dean Devlin
Scenariusz: Dean Devlin, Paul Guyot
Gatunek: Katastroficzny
Produkcja: USA
Premiera: 20 października 2017 (Polska) 12 października 2017 (świat)
Boxoffice: $62 900 000


Sieć satelitów, która została stworzona do kontroli globalnego klimatu, zaczyna powodować katastrofalne anomalie pogodowe.




https://images84.fotosik.pl/889/66e4287ab35c1321gen.jpg
https://images84.fotosik.pl/889/cf1032322617bd86gen.jpg


Dane techniczne:


Format : MPEG-4
Format profile : Base Media / Version 2
Codec ID : mp42 (mp42)
File size : 803 MiB
Duration : 1 h 41 min
Overall bit rate : 1 106 kb/s
Codirector : codirector
Production studio : studio
ContentType : Unknown Type
Encoded date : UTC 2017-11-06 14:59:46
Tagged date : UTC 2017-11-06 14:59:46


Video
ID : 1
Format : AVC
Format/Info : Advanced Video Codec
Format profile : [email protected]
Format settings, CABAC : Yes
Format settings, ReFrames : 2 frames
Muxing mode : Container [email protected]
Codec ID : avc1
Codec ID/Info : Advanced Video Coding
Duration : 1 h 41 min
Bit rate : 998 kb/s
Width : 854 pixels
Height : 388 pixels
Display aspect ratio : 2.2:1
Frame rate mode : Constant
Frame rate : 25.000 FPS
Color space : YUV
Chroma subsampling : 4:2:0
Bit depth : 8 bits
Scan type : Progressive
Bits/(Pixel*Frame) : 0.121
Stream size : 725 MiB (90%)
Language : English


Audio
ID : 2
Format : AAC
Format/Info : Advanced Audio Codec
Format profile : LC
Codec ID : 40
Duration : 1 h 41 min
Bit rate mode : Constant
Bit rate : 101 kb/s
Channel(s) : 2 channels
Channel positions : Front: L R
Sampling rate : 44.1 kHz
Frame rate : 43.066 FPS (1024 spf)
Compression mode : Lossy
Stream size : 73.3 MiB (9%)
Title : Stereo
Language : English
Default : Yes
Alternate group : 1


Download:



Treść widoczna tylko dla Użytkowników forum Darkarea.pl Zaloguj (http://darkarea.pl/login.php?do=login) się lub Zarejestruj (http://darkarea.pl/register.php)
aby korzystać ze wszystkich darmowych funkcji forum